Index Of Beatles Flac


> 09-Dec-2004 17:00 1. › How to Create and Share Location Collections in Apple Maps. Broken links and bugs will not be fixed. The Song remains The Same. Avengers Endgame 2019 WEBRip 1080p x264. The two CD's depicted above - a copy of a first pressing of the stereo Please Please Me album, and ditto of a first pressing mono Revolver, featuring that unique mix of "Tomorrow Never Knows", which was only available on that particular first. cue+log) - 374 MB MP3 CBR 320 kbps (LAME. 8M Six Feet Under - Gri. Some people who are even sadder than me use the full release date (eg. All requests left in the comments section will be ignored. flac" WAVE TRACK 01 AUDIO TITLE "It Won't Be Long" INDEX 01 00:00:00 TRACK 02 AUDIO TITLE "All I've Got To Do" INDEX 01 02:14:22 TRACK 03 AUDIO TITLE "All My Loving" INDEX 01 04:19:36 TRACK 04 AUDIO TITLE "Don't Bother Me" INDEX 01 06:29:44 TRACK 05 AUDIO TITLE "Little Child" INDEX 01 08. edu AFS cell. The Beatles - Discography (1963-2015) 2019-5-28 | Download more: Rock, Metal » Discographies and Collections Container: FLAC (image +. Excellent and VeryGood Audience Recordings :: Silver CDs :: Lossless FLAC. Descargar iron maiden discografia mega completa 320kbps itunes m4a. 108226 rapidshare index of mp3 because links available for free instant download. Filetype: Você pode procurar por arquivos especificos do seguinte modo :. 00b: October 6 2013 at 12:05: The Best Of Black Sabbath: 0. Sibilant Moment. Extra Texture Navy Tee. >> You can obtain exclusive access by registering now. FLAC, de la Discografia de The Beatles, el mismo que se realizo digitalmente en el año 2009 por Apple y EMI y cuenta con los 13 CDs de estudio de la banda y los Past Masters. The Beatles - Discography (1963-2015) 2019-5-28 | Download more: Rock, Metal » Discographies and Collections Container: FLAC (image +. Artist: The Beatles Title: Anthology 1-2-3 Year Of Release: 2016 Label: Capitol Records Genre: Rock Quality: FLAC (tracks) Total Time: 06:36:47 Total Size:: 2. COMMENT Recorded 1940-1942, not published until 1972. 8M Six Feet Under - Gri. 1kHz 24bit). flac 3 min 38 s; 130. The set was issued on 9 September 2009, along with the remastered mono recordings and companion The Beatles in Mono and The Beatles: Rock Band video game. The site is dedicated to flac music in lossless. flac 那英 那英; 2 爱你A. Tracklist: 01. Top 6 sites for buying FLAC music. The Beatles (2009 Remastered) Yellow Submarine (2009 Remastered) Abbey Road (2009 Remastered) Let It Be (2009 Remastered) RECOPILATORIOS Iron Maiden - Discografia MEGA completa FLAC Albums CDs FREE. Pepper's Lonely Hearts Club Band" perched in the top spot, you weren't having a flashback to 1967. Elvis Presley - Classic Love Balads 1986 [FLAC]-JDR: 0. (1993) Remastered FLAC / MP3 Pink Floyd - The Dark Side Of The Moon (1973) Remastered FLAC / MP3 Joy Division - Substance (1988) FLAC / MP3. The CD collection is ripped in 16 Bit / 44. flac download 15. By admin flac-music 2020, Hi. Download music albums in the DSD format. 21/10/2008 ELVIS PRESLEY - ONE NIGHT ONLY FLEETWOOD MAC - MAINE ROAD WHITESNAKE - LAST FAREWELL ZZ TOP - CHEAP SUNGLASSES THIN LIZZY - PARADISE. 6 All My Loving The Philharmonic Beatles Experience 2:19. This bootleg listing is ONLY for informational purposes. > 2019-06-10 08:34 7. #N#The Ultimate Beatleg Guide. zip : 1,00 GB…. FLAC files are included and one could use Audacity to remix these back to monaural. 02 Gb Tracklist: Anthology 1 Disc 1 01. OTHER CATEGORIES. Parent Directory - '39 (Thirty-Nine) (I. Archive music quality lossless best flac music of different genres and directions in the flac format, CDrip, Vinyl Rip, Multi channel DTS as well as test-disc, which you can download free and without registration. se are as follows: If you do not see any explicit copyright statement associated with the picture, then we do not know the status. The memory stick contains 44kHz FLAC files, but they are in 24 bit of superior audio quality in comparison to CDs (which are 44kHz/16bit, which is all a standard. JPGR's Beatles Bootlegs Index Singles, E. The Rover Intro / Sick Again. Love is a soundtrack remix album of music recorded by the Beatles, released in November 2006. Nobody's Fault But Mine. 98: Viewing 101 - 111 of 111 Products. Descargar iron maiden discografia mega completa 320kbps itunes m4a. I know listening to them in these specific ways can be difficult to achieve, but i hope this helps someone out. All links to albums are provided from other servers and are not affiliated with this website. The 225 best bootlegs available via download, 2015-19 5 years - 130 different artists The posts #1 to #100 were mostly made from downloads prior to 2015. it AFS cell. >> You can obtain exclusive access by registering now. Top 6 sites for buying FLAC music. The story gets weirder, though. Vinyl US, VERY GOOD. Beatles in 24 bit It was recently brought to my attention that the new Apple USB Memory stick containing all the Beatles remasters offers a sonic advantage over their CD equivalents. 6 MHz) + FLAC 24 bit / 96 kHz (Tracks) + FLAC 16 bit / 44. Index of /dances Name Last modified Size Description. Ebbetts' U. 1kHz 24bit). 00b: October 6 2013 at 12:05: The Beatles - 2007 - Greatest Hits Part2 1966-1970 (2CD) 0. 8 And I Love Her The Brass And Percussion Group 2:49. flac download. mka) などのメディアコンテナに格納することもできる。 一部の変換ソフトには、無圧縮形式に変換可能なFLAC Uncompressedというオプションが用意されている。. 2 (Freeware) by Super MP3 Download Inc. 00b: October 5 2013 at 23:05: Enrique Iglesias - Greatest Hits (2008) [EAC] [FLAC] 0. Abbey Road will be reissued in seven formats,. The Beatles -09- Everybody's Got Something To Hide Except Me And My Monkey. 1 download flac Pink Floyd - Atom Heart Mother, The High Resolution Remasters ‎ download flac Fangoria - Absolutamente download flac. The Alan Parsons Project - Ammonia Avenue (1984) {2020, Super Deluxe Edition, Remastered, Remixed, 3CD + BD + Hi-Res} EAC Rip | 3x CDs | FLAC Image + Cue + Log. Rock music. 1kHz, CD-Format Full Scans Included Total Size: 9. Baby Animals, The. If you have any questions about this content, please contact the administrators of this directory, who made it publicly available. 2007 - For Emma, Forever Ago {2008 Jagjaguwar 115} - 25-Jan-2016 06:27. I've tried to list here all the Flash, Impulse, and related books, series, and. #N#The Ultimate Beatleg Guide. #N#10,000 Maniacs. I do like the fact that. edu AFS cell. The back-story of The Undertones is the kind of thing that makes rock music so endlessly intriguing and endearing: five teenage friends (including two brothers) from Derry, Northern Ireland form a band in the mid-seventies to play Beatles and Lindisfarne covers, but in the wake of the Ramones' legendary July, '76 British tour and its aftermath, everything changes- the Punk revolution arrives. 6 MHz) + FLAC 24 bit / 96 kHz (Tracks) + FLAC 16 bit / 44. Um Cafe La Em Casa '2019. BEATLES FOR SALE - Deluxe Edition (Purple Chick PC-110/111) (3 CDs, stereo and mono mixes + session outtakes) (from. FLAC stands for Free Lossless Audio Codec, an audio format similar to MP3, but lossless, meaning that audio is compressed in FLAC without any loss in quality. A quick Google search takes us directly to the download page where i can grab a copy of the FLAC codec. 00b: October 5 2013 at 23:05: Enya - Only Time Collection. needle-drop FLAC. The memory stick contains 44kHz FLAC files, but they are in 24 bit of superior audio quality in comparison to CDs (which are 44kHz/16bit, which is all a standard. February 20, 2020. > 24-Nov-2004 16:27 1. flac" WAVE TRACK 01 AUDIO TITLE "Birthday" INDEX 01 00:00:00 TRACK 02 AUDIO TITLE "Yer Blues" INDEX 01 02:44:20 TRACK 03 AUDIO TITLE "Mother Nature's Son" INDEX 01 06:45:32 TRACK 04 AUDIO TITLE. Simple Plan - Shut U. Frank Zappa: Des Moines - November 30, 1980. Beatles-LastChristmas. 2 (Freeware) by Super MP3 Download Inc. Audiophiles that only use FLAC are usually enjoying a modern jazz album, acoustic albums, even live music. Nagyon érdekes és tanulságos volt olvasni a Rolling Stones-fanek homepage-ét. The Music Index gives you access to a comprehensive listing of over 30,000 albums based on reviews appearing in "Q" Magazine from October 1986 to 2006. Raconteurs fans who thought they heard a hint of the Beatles embedded within the group's new album, "Help Us Stranger," may have been more intuitive than they realized. flac" WAVE TRACK 01 AUDIO TITLE "It Won't Be Long" INDEX 01 00:00:00 TRACK 02 AUDIO TITLE "All I've Got To Do" INDEX 01 02:14:22 TRACK 03 AUDIO TITLE "All My Loving" INDEX 01 04:19:36 TRACK 04 AUDIO TITLE "Don't Bother Me" INDEX 01 06:29:44 TRACK 05 AUDIO TITLE "Little Child" INDEX 01 08. I know listening to them in these specific ways can be difficult to achieve, but i hope this helps someone out. flac" WAVE TRACK 01 AUDIO TITLE "Taxman" PERFORMER "The Beatles" REM COMPOSER "" INDEX 00 00:00:00 INDEX 01 00:00:33 TRACK 02 AUDIO. FLAC stands for Free Lossless Audio Codec, an audio format similar to MP3, but lossless, meaning that audio is compressed in FLAC without any loss in quality. Descargar iron maiden discografia mega completa 320kbps itunes m4a. The Beatles Stereo 2009 Remasters/ - 12-Jan-2016 00:26. Catalog #: 602537614127 Style: Rock Year: 2014 Format: FLAC (image +. Tracklist: 01 – A Hard Day’s Night 02 – I Should Have Known Better 03 – If I Fell 04 – I’m Happy Just To Dance With You 05 – And I Love Her 06 – Tell Me Why 07 – Can’t Buy Me Love 08 – Any Time At All 09 – I’ll Cry Instead. Happy holidays from the Beatles: As of 12:01 a. 63 Gb + 505 Mb Tracklist & Download Links. Free As A Bird (Anthology 1 Version) (4:25) 02. 2M The Beatles -10- Child of Nature. Beatles-LastChristmas. Pepper's Lonely Hearts Club Band" perched in the top spot, you weren't having a flashback to 1967. "Beatles 1967-06-01" and "Beatles 1967-11-27"). Use menu to navigate for contents and link to artwork. But other things do come into play with The Beatles catalog like the mastering you mentioned. 00b: October 5 2013 at 23:02: Enigma - Discography [Flac] 0. The general rules for the /pub/pictures part of ftp. 1 Khz 24 bit and MP3 320. > 09-Dec-2004 17:04 1. The command-line AACGain can be used in conjunction with the MP3GainGUI by. It Won't Be Long - 02:18 02. FILE "Beatles, The - Revolver (1966). Joel Paterson Plays The Beatles '2019. Bruce Springsteen (Steel Mill) The Upstage Asbury Park, NJ January 22, 1971 (Previously Un-circulated) (The penultimate Steel Mill show) Transfer: Cassette Master > Reel > CDR > EAC Rip >. com ArtWork: not included Size. flac download. The remastering project for both mono and stereo. The two CD's depicted above - a copy of a first pressing of the stereo Please Please Me album, and ditto of a first pressing mono Revolver, featuring that unique mix of "Tomorrow Never Knows", which was only available on that particular first. cue,log,scans) Total Time: 42:36 Total Size: 211 mb Re-Up Today, 10:55 Comments (3). Download index of mp3 because the beatles come together using General-Search. Bernardi Lux Aeterna. The Beatles - The Beatles [White Album] (1968) Remastered FLAC / MP3 Artist: The Beatles. Some people who are even sadder than me use the full release date (eg. The group's "main catalogue" - songs released between 1962 and 1970 - consists of 213 songs (four of which exist in different versions): 188 originals and 25 covers. 2M Slaughter - You Are. ) September 1st (2009) After B. flac Beyond Beyond; 4 专辑《法拉利·汽车专用播放(黑胶CD)》. GarciaLive Volume 13: September 16th, 1989 Poplar Creek Music Theatre [2 CD] Jerry Garcia Band. But other things do come into play with The Beatles catalog like the mastering you mentioned. We invite you to join us in this evaluation of future consumer delivery formats. Adam And The Ants. > 28-Nov-2004 01:02 1. Love is a soundtrack remix album of music recorded by the Beatles, released in November 2006. Don't Bother Me - 02:33 05. Pepper's Lonely Hearts Club Band (Deluxe Edition) 2017; The Beatles - The U. I've tried to list here all the Flash, Impulse, and related books, series, and. mp3: 26-Jul-2008 19:50 : 1. MQA and FLAC are lossless encodings derived directly from our original production masters. Narzędzia forum. it AFS cell. > 15-Nov-2004 13:57 1. 38 GB (24/96). Crawl (2019) [WEBRip] [1080p] x264. A quick Google search takes us directly to the download page where i can grab a copy of the FLAC codec. flac 潘玮柏 潘玮柏. cue,log,scans). In 2011 the band reunited and since. Bootlegs: Performer First: Performer Last: Title: Date: Venue: City: State / Country: Tracker: Track # Torrent Date: Pkg: Type: Standard: Date @ Beach Boys: Smile. The remastering project for both mono and stereo. 00b: October 6 2013 at 12:05: The Best Of Black Sabbath: 0. Nelson Faria Convida Benjamim Taubkin. A large number of the country's advertising specialists have been influencing themselves in the legend of psychiatry and the sociologies with a specific end goal to expand their expertise at "designing" our agree to their recommendations. ogg) やMatroskaファイル (. Um Cafe La Em Casa '2019. Adam And The Ants. Ein Salzburger Requiem '2019. 4 GB The Beatles - 2019 - Abbey Road (Super Deluxe Edition) (3CD) [FLAC] (miok) 793 MB Various Artists - The Many Faces of The Beatles (2016) [Box 3CD][Flac] 582 MB. It was released on July 14, 2010. Love is a soundtrack remix album of music recorded by the Beatles, released in November 2006. The memory stick contains 44kHz FLAC files, but they are in 24 bit of superior audio quality in comparison to CDs (which are 44kHz/16bit, which is all a standard. flac download. 50+ videos Play all Mix - The Beatles - Hey Jude (Lyric Video) [HD] [HQ] YouTube The Beatles - Let It Be │ LIRIK TERJEMAHAN - Duration: 4:11. FILE "The Beatles - The Many Faces Of The Beatles CD1(The Early Years). i just didnt want to buy one of these and not have it work. flac download 333. > 02-Dec-2004 18:45 1. flac) (A) BEATLES VI (Apple/Capitol CDP 0946 3 57499 2 2, out of print) (includes Mono Type-B fold-down mix erroneously issued on first pressing of THE CAPITOL ALBUMS, VOL. Re: Is Beatles FLAC good FLAC? I would think there many reasons why Buddha stated what he did, but perhaps just stated it incorrectly. Over The Hills And Far Away. The Beatles – The Collection (1982) {MFSL Remastered, Box Set, CD-Format & Hi-Res Vinyl Rip} Vinyl Rip | 14 × Vinyl | FLAC Tracks @24bit/96kHz, Hi-Res | FLAC Tracks @16bit/44. Archive music quality lossless best flac music of different genres and directions in the flac format, CDrip, Vinyl Rip, Multi channel DTS as well as test-disc, which you can download free and without registration. Give it 4 out of 5 for the effort, 2 out of 5 for the remastering and conversion to stereo (for the binaural masters) which in some cases is a complete failure -- just get the "Beatles in Mono" set done more recently for the real thing. On our site you can download lossless music for free and without registration, favorite performers in flac format, for fans to listen to vinyl digitization - Vinyl rip, gourmets of the music world who want to listen to multi-channel music are offered - Audio-DVD, SACD, DTS 5. Super MP3 download always brings the hottest songs of 14 categories, from choose specific edition of live, piano, guitar Download Free Mp3, Free Mp3, Free Mp3 Downloads, Free Music Download, Free Music Downloads, Index Mp3. FILE "The Beatles - The Many Faces Of The Beatles CD1(The Early Years). Over the years, the collection has also been released on cassette, 8-track, compact disc (CD), on a USB flash drive in MP3 and 24-bit FLAC format, and on digital media streaming services. ) September 1st (2009) After B. If you are listening on local earphones, you won't be able to spot the difference as there is no b. INDEX released IDENTIDADE, in 2005. Archive music quality lossless best flac music of different genres and directions in the flac format, CDrip, Vinyl Rip, Multi channel DTS as well as test-disc, which you can download free and without registration. banfibill. Bernardi Lux Aeterna. 2 (Freeware) by Super MP3 Download Inc. The experience is breathtaking! Disposed in a chronologically way, (more than 1000!) LPs, K-7s, DVDs, CDs, magazines, clothings and other items provide to the visitor a wonderful journey through the band history. Download index of mp3 the beatles pepper s using General-Search. The Beatles -09- Everybody's Got Something To Hide Except Me And My Monkey. Hi-Res Digital Download. 37 > FLAC 01 Jailbreak 02 It's Only Money 03 Emerald 04 The Boys Are Back In Town 05 Still In Love With You 06. 2M: 002) Van Halen - Eruption. Shazam! 2019 BluRay 1080p x264. As of march 2016, this website contained profiles of 8,600 musicians. cue+log) - 374 MB MP3 CBR 320 kbps (LAME. 118435 rapidshare index of mp3 the links available for free instant download. Tours > The Beatles > Beatles Compilations Start Date: 0000-00-00: Date: Band: Roio Name: Roio Label / Taper: Venue: City: Recording: Format: 1960 - 1969: The Beatles. Free As A Bird (Anthology 1 Version) (4:25) 02. Beatles Sections: #N#Paul McCartney. Thinking Of Linking (Lennon/McCartney). 0 (24/96 capture to. Sepultura - Chaos A. 2M: 002) Van Halen - Eruption. it AFS cell. Opções de Buscas. 09/12/2008 HEART - SECRET HEART ILLUSTRATED. If you're looking to buy lossless music in FLAC format, from indie to classical to jazz, here are our favorite sites. MQA and FLAC are lossless encodings derived directly from our original production masters. The Beatles were an English rock band from Liverpool who recorded hundreds of songs during their career. 1 kHz / 16 Bit Source: CD Album Artist: The Beatles Album Name: Discography Label, Catalog: Various Genre: Rock Release Date: 1963-2015 ArtWork: included. Click on the button below, and then unzip the compressed file automatically downloaded to your computer. Rozpoczęty przez. I have Beatles FLAC Discography. so the purer the better for me. flac music albums and tracks download free. Full HD Movies Download. All popular music albums format Mp3 / Flac at MusicRW. Mp3 is a compressed version of the original recorded CD. Love is a soundtrack remix album of music recorded by the Beatles, released in November 2006. Bootlegs: Performer First: Performer Last: Title: Date: Venue: City: State / Country: Tracker: Track # Torrent Date: Pkg: Type: Standard: Date @ Beatles 'River Rhine. The Threetles - Meet The Threetles! Publisher: Purple Chick Reference :PC-60 Date :2003 Made In: USA Track Listing: 01. Following the tremendous success of their debut album, Permission to Land, The Darkness toured immensely having made about 114 concerts in 2004 (according to setlist. 2M: 002) Van Halen - Eruption. muzyka bezstratna. This is similar to how Zip works, except with FLAC you will get much better compression because it is designed specifically for audio, and you can play back compressed FLAC files in your favorite player (or your car or home stereo, see. edu AFS cell. 9K '39 (Thirty-Nine) (I. What would be the disadvantages of converting these stereo tracks into mono rather than buying the mono remasters? Would there be a difference at all? Stereo is annoying when listening in headphones. Two new "needledrops" have been released - free of charge - to his best customers. A | C | E | F | I | P | S | T | U | V. #N#The Ultimate Beatleg Guide. Nobody's Fault But Mine. John Lennon "At Home" artwork included Disc one: Guitar Demos: Watching The Wheels Knockin' On Dylan's Door It Sounds Like A Ballad. Broken links and bugs will not be fixed. It features music compiled and remixed as a mashup for the Cirque du Soleil show of the same name. Index - Identidade (2005) EAC Rip FLAC (image+. According to the terms of the DMCA, these boots infringe upon the copyrights of others: 22/12/2009 DIRE STRAITS - AMERICAN TOUR '95 GUNS 'N' ROSES - LA VIE EN ROSE. it AFS cell. > 28-Nov-2004 01:02 1. FILE "The Beatles - The Many Faces Of The Beatles CD1(The Early Years). Highlights 1947-1956. Nelson Faria Convida Benjamim Taubkin. Rebecca Pan - 我又想起你 Eddie Fisher - Sayonara / That's The Way It Goes Frank Sinatra - Look To Your Heart Andrews Sisters - Russ Morgan And His Orchestra - Now! Now! Now! Is The Time / Oh, You Sweet One (The Schnitzelbank Song) Annikki Tähti - Laulaa Venäläisiä Kansanlauluja Various - The Very Best Of Now Dance Buddy Rich Orchestra - The. 1 valid CSS 2. Quality: FLAC 24 bit / 44. The command-line AACGain can be used in conjunction with the MP3GainGUI by. The Beatles - The Beatles [White Album] (1968) Remastered FLAC / MP3 Artist: The Beatles. 1 valid CSS 2 valid XHTML 1. 1 kHz (Tracks) Artist: Eagles Title: Hell Freezes Over Released: 1994/1998 Style: Blues Rock, Country Rock, Classic Rock RAR Size: 6. This is the alphabetical index of the songs that have been covered in the series of lesser-known originals. With the Beatles (1963) Vinyl Rip | FLAC Tracks @24bit/96kHz, Hi-Res | FLAC Tracks @16bit/44. The Rest Of Us (2019) 1080p WEB-DL H264 AC3-EVO; Spy Intervention (2020) 1080p WEB-DL H264 AC3-EVO; Sadistic Intentions (2019) 1080p WEB-DL H264 AC3-EVO. For example, the ALBUMSORT tags for Sgt Pepper and Magical Mystery Tour are "Beatles 1967A" and "Beatles 1967B". Over the years, the collection has also been released on cassette, 8-track, compact disc (CD), on a USB flash drive in MP3 and 24-bit FLAC format, and on digital media streaming services. Beatlesarama News & Updates. All popular music albums format Mp3 / Flac at MusicRW. Dorian - Discografia COMPLETA. flac" WAVE TRACK 01 AUDIO TITLE "Ain't She Sweet" PERFORMER "The Beatles" INDEX 01 00:00:00 TRACK 02 AUDIO TITLE "Cry For A Shadow" PERFORMER "The Beatles" INDEX 01 02:14:19 TRACK 03 AUDIO TITLE "My Bonnie" PERFORMER "Tony Sheridan & The Beatles" INDEX 01 04:38:19 TRACK 04 AUDIO. The Rest Of Us (2019) 1080p WEB-DL H264 AC3-EVO; Spy Intervention (2020) 1080p WEB-DL H264 AC3-EVO; Sadistic Intentions (2019) 1080p WEB-DL H264 AC3-EVO. I can't get Album Artist to work at all with my FLAC files. The Beatles (2009 Remastered) Yellow Submarine (2009 Remastered) Abbey Road (2009 Remastered) Let It Be (2009 Remastered) RECOPILATORIOS Iron Maiden - Discografia MEGA completa FLAC Albums CDs FREE. flac download. Avengers Endgame 2019 WEBRip 1080p x264. Black Sabbath - Vol. Audiophiles that only use FLAC are usually enjoying a modern jazz album, acoustic albums, even live music. I can't get Album Artist to work at all with my FLAC files. Little Child - 01. index (1220748) beatl dave davies bel­ ly up planet v flac jr 500 amanda seul 3 70 cf 8 3 12 1616 bac. The 225 best bootlegs available via download, 2015-19 5 years - 130 different artists The posts #1 to #100 were mostly made from downloads prior to 2015. Comments Off on Globe Unity Orchestra - Intergalactic Blow (2019) [FLAC 24bit/96kHz] Hi-Res Digital Download. They have equipped themselves with all. flac 黄品源 黄品源; 6 第九. 00b: October 5 2013 at 23:06. DVD Covers. High Resolution Music Downloads and free HiRes Music Downloads. Qobuz now selling Redbook FLAC downloads of The Beatles catalog:[IMG] Qobuz - Musique illimitée et Téléchargements Hi-Res 24-Bit. Gertrude Lawrence - The Star (1968/2020) FLAC (tracks) 24-bit/96 kHz | Time - 43:03 minutes | 657 MB | Genre: Pop, Vocal Jazz, Easy Listening. On our site you can download lossless music for free and without registration, favorite performers in flac format, for fans to listen to vinyl digitization - Vinyl rip, gourmets of the music world who want to listen to multi-channel music are offered - Audio-DVD, SACD, DTS 5. Labels: FLAC , Frank Zappa. 24, the band's music will finally be available on streaming services worldwide. 98: The Beatles / E. The Beatles Stereo Box Set 2009 The Beatles Stereo Box Set is a box set compilation comprising all of the remastered stereo recordings by The Beatles. Click on the button below, and then unzip the compressed file automatically downloaded to your computer. wav files > Peak Pro XT (subtle tweak / edit / re-index) > xACT 2. Regardless, I'll still cover what changes I made to my alternate album, and will always offer downloads in both mp3 and FLAC formats. Pepper's Lonely Hearts Club Band" perched in the top spot, you weren't having a flashback to 1967. Bernardi Lux Aeterna. 1 download flac Pink Floyd - Atom Heart Mother, The High Resolution Remasters ‎ download flac Fangoria - Absolutamente download flac. Thereafter there was no significant progress in Scorpio's recurrence board "Studio Daze Digitally Remastered" (LZ 01) to the extent that a take including the first appearance appears in plain before "Moby" performance, so far the audience recording Not to mention the single item as a '72 Long Beach performance is not released at all, and the SB appeared suddenly and it made me. 08 KB: To save right click on the cover below and choose Save Picture As DOWNLOAD COVERS. Thinking Of Linking (Lennon/McCartney). John Lennon's 1968 Rolling Stone Interview; Sir Paul McCartney's Unreleased Collaboration With Former Beatles Bandmate Sir Ringo Starr Expected to Fetch up to £20,000 After Heading to Auction. FLAC, de la Discografia de The Beatles, el mismo que se realizo digitalmente en el año 2009 por Apple y EMI y cuenta con los 13 CDs de estudio de la banda y los Past Masters. Elvis Presley - Classic Love Balads 1986 [FLAC]-JDR: 0. 23 KB Index of /private/files/ File Name ↓ File Size ↓ Date ↓ Parent directory/ - - The Beatles [1968][FLAC]/ - 25-Jan-2016 13:44. Broken links and bugs will not be fixed. 108226 rapidshare index of mp3 because links available for free instant download. Garbage in, garbage out. Albums: Second Album; The Beatles - The Beatles Bootleg Recordings 1963 (2013) The Beatles - Help! Studio Sessions: Back To Basics; The Beatles - The Beatles Bootleg Recordings 1963; The Beatles-On Air - Live at the BBC, Vol. Raunchy (Justis/Manker) 02. Recent Entries; 1999-08-28 · Roger Waters @ Kemper Arena, Kansas City · Rehearsals · 2 days ago; 1999-08-28 · Roger Waters @ Kemper Arena, Kansas City · Every Point Of Light · 6 days ago; 1999-08-28 · Roger Waters @ Kemper Arena, Kansas City · Each Small Candle · 7 days ago; 1999-08-18 · Roger Waters @ Coca-Cola Star Lake Amphitheater, Burgettstown · Starlake Amphitheater · 11 days ago. Baby Animals, The. The two CD's depicted above - a copy of a first pressing of the stereo Please Please Me album, and ditto of a first pressing mono Revolver, featuring that unique mix of "Tomorrow Never Knows", which was only available on that particular first. George Harrison's life celebrated with Liverpool woodland memorial. It features music compiled and remixed as a mashup for the Cirque du Soleil show of the same name. The album has been remixed from the original multi-track tapes by Giles Martin, son of the album's producer George Martin. Here is the link to both the Beatles in 24 Bit FLAC and mono for all of you who havent experienced them in this format. se are as follows: If you do not see any explicit copyright statement associated with the picture, then we do not know the status. All I've Got to Do - 02:08 03. [ Download FLAC] [ Download MP3] Password: music - July 15, 2019. 07 MB: 29: 6 months: 96: 19: VARIOUS Children Of The 80's (By Dream3Team Reload) 2015 CD-FLAC URBiN4HD Posted by. If you have any questions about this content, please contact the administrator of this directory, who made it publicly available. 2M The Beatles -10- Child of Nature. Albums: Second Album; The Beatles - The Beatles Bootleg Recordings 1963 (2013) The Beatles - Help! Studio Sessions: Back To Basics; The Beatles - The Beatles Bootleg Recordings 1963; The Beatles-On Air - Live at the BBC, Vol. 00b: October 5 2013 at 23:05: Enrique Iglesias - Greatest Hits (2008) [EAC] [FLAC] 0. Artist: VA Title Of Album: Jazz and Beatles Release Date: 2010 Location: Argentina Label: Music Brokers (MBB 9932) Genre: Jazz Quality: FLAC | lossless (image+. Re: Is Beatles FLAC good FLAC? I would think there many reasons why Buddha stated what he did, but perhaps just stated it incorrectly. flac Bruno Mars Bruno Mars; 6 Coming Home. 4 GB The Beatles - 2019 - Abbey Road (Super Deluxe Edition) (3CD) [FLAC] (miok) 793 MB Various Artists - The Many Faces of The Beatles (2016) [Box 3CD][Flac] 582 MB. 6M: 003) Lynyrd Skynyrd - Freebird. Opções de Buscas. (1965) [flac] This content is being served through the AFS server afs07. se are as follows: If you do not see any explicit copyright statement associated with the picture, then we do not know the status. At this point, one has to wonder if The Beatles are aware. FILE "The Beatles - The Many Faces Of The Beatles CD1(The Early Years). Mp3 is a compressed version of the original recorded CD. The Beatles (The Original Studio Recordings) – also known as The Beatles: Stereo Box – is a box set compilation comprising all remastered recordings by English rock band the Beatles. This is as good as you can get at the moment. This is similar to how Zip works, except with FLAC you will get much better compression because it is designed specifically for audio, and you can play back compressed FLAC files in your favorite player (or your car or home stereo, see. Its the stereo Remaster. so the purer the better for me. FLAC, de la Discografia de The Beatles, el mismo que se realizo digitalmente en el año 2009 por Apple y EMI y cuenta con los 13 CDs de estudio de la banda y los Past Masters. All links to albums are provided from other servers and are not affiliated with this website. Recorded Live at Various venues and cities, USA - June 21 to 27, 1977. It was released on July 14, 2010. The Beatles - Lossless - The Beatles Rockband Rubber Soul (Volume Nine Stereo Dolby Digital)(Beatcomber PCS 329) (1970) (FLAC) The Beatles - Lossless - The Beatles Something Extra (1970) (FLAC) The Beatles - Lossless - Beatles VI (NZ-UK Export 24 96 Needledrop)(Qcumbaman) (1970) (FLAC). Sepultura - Chaos A. The Beatles' discography was originally released on the vinyl format, with full-length long plays (LPs), shorter EPs and singles. zip : 1,00 GB…. The GOAT- Ghost of All Time '2019. 7M Black Sabbath - Sabbath Bloody Sabbath (1986, Castle Communications, NELCD 6017). Beatles vs Rolling Stones Singles '64 '69 [FLAC] vtwin88cube Posted by vtwin88cube in Music > Lossless. cue) Quality: Hi-Fi, lossless audio Sample Rate: 44. 4M Six Feet Under - The. flac download 15. I use FLAC primarily as a method for backing up my music. muzyka bezstratna. In 2011 the band reunited and since. Crawl (2019) [WEBRip] [1080p] x264. > 2019-06-10 08:34 7. The index will aid those that prefer an A to Z alphabetical listing and help you instantly find a particular artist that is of interest to you. Artist: VA Title Of Album: Jazz and Beatles Release Date: 2010 Location: Argentina Label: Music Brokers (MBB 9932) Genre: Jazz Quality: FLAC | lossless (image+. Mp3 is a compressed version of the original recorded CD. banfibill. #N#10,000 Maniacs. (1965) [flac] This content is being served through the AFS server afs07. com ArtWork: not included Size. 10 Because Tony Osborne 2:33. Rolling Stone magazine gave the record top honors on their list of best albums of all time. Ashcroft, Richard. 13th Floor Elevators. The Beatles - Magical Mystery Tour (REISSUE REMASTERED LP) (2017) [FLAC] VA - ABC Of The Blues The Ultimate Collection From The Delta To The Big Cities (2010) [FLAC] VA - The Best Smooth Jazz Ever (2002) [FLAC]. Index is a Brazilian band, and Identidade their third release. 1kHz, CD-Format | Full Scans Included Label: Mobile Fidelity Sound Lab | Cat#: MFSL 1-102. Sharing my ROIO music collection 111 musicians, more than 2,000 shows, over 1 TB of FLAC music. The Beatles - Abbey Road (1969) Remastered FLAC / MP3 Artist: The Beatles. Pokaż wątki Pokaż posty. All links to content are provided from other servers and are not affiliated with this website. Parent Directory - РХули/ 15-May-2009 17:48 - Ð Ð²Ð³ÑƒÑ Ñ‚/ 15-May-2009 17:48 - Ргата ÐšÑ€Ð¸Ñ Ñ‚Ð¸/ 11-Dec-2011 19:. flac 群星 群星; 5 你怎么舍得我难过. (1993) Remastered FLAC / MP3 Pink Floyd - The Dark Side Of The Moon (1973) Remastered FLAC / MP3 Joy Division - Substance (1988) FLAC / MP3. 1 home theater music song in the most popular formats DVD-Audio, DTS 5. flac" WAVE TRACK 01 AUDIO TITLE "It Won't Be Long" INDEX 01 00:00:00 TRACK 02 AUDIO TITLE "All I've Got To Do" INDEX 01 02:14:22 TRACK 03 AUDIO TITLE "All My Loving" INDEX 01 04:19:36 TRACK 04 AUDIO TITLE "Don't Bother Me" INDEX 01 06:29:44 TRACK 05 AUDIO TITLE "Little Child" INDEX 01 08. Artist: VA Album: Songs of The Beatles: Reggae Style Released: 2016 Label: Metro Genre: Reggae Duration: 02:09:33 Listado de Temas 01. The Beatles' Revelatory White Album Demos: A Complete Guide We delve deep into the 1968 home recordings that planted the seeds for the band's classic self-titled double LP. The Beatles – The Collection (1982) {MFSL Remastered, Box Set, CD-Format & Hi-Res Vinyl Rip} Vinyl Rip | 14 × Vinyl | FLAC Tracks @24bit/96kHz, Hi-Res | FLAC Tracks @16bit/44. flac 3 min 38 s; 130. 00b: October 5 2013 at 23:05: Enya - Only Time Collection. Godzilla King Of The Monsters 2019 BluRay 1080p x264. Dark Phoenix 2019 BluRay 720p x264. The Beatles Symphonic Orchestra 2:50. flac download. 1 valid CSS 2. FILE "The Beatles - Revolver (CDP 7 46441 2). 118435 rapidshare index of mp3 the links available for free instant download. Total Time: 32:44. Joel Paterson Plays The Beatles '2019. Jack and Jill is a 2011 American comedy film directed by Dennis Dugan, written by Steve Koren and Adam Sandler, and starring Sandler (in a dual role), Katie Holmes, and Al Pacino. fla) だけでなく、Oggファイル (. A lush, stunning, overwrought masterpiece of an album, The House of Love's second consecutive self-titled LP (the first long-player born of their ill-fated relationship with Fontana Records) stands as one of the great indie releases of the nineties, even though its status as the missing link between Post-Punk and Brit-Pop has all but assured it of a slow descent into relative obscurity. The Beatles Apple USB and the 16GB USB's audio contents will be provided in FLAC 44. Para Swara 1,358,769 views. cue,log,scans) Length: 37:22 min Tracks: 14 Total Size: 281 MB WebSite: amazon Tracklist: 01. HDtracks is a high-resolution music platform for music lovers to download their favorite tracks in master studio quality. (1965) [flac] This content is being served through the AFS server afs07. 2M Slaughter - You Are. All I've Got to Do - 02:08 03. Quality: DSD 128 (1 Bit / 5. The Beatles The Alternate Versions,Vol. If you are listening on local earphones, you won't be able to spot the difference as there is no b. Ginette Reno - The First Noel (2007/2014) [FLAC 24bit/44,1kHz] Posted 8 mins ago. The Rest Of Us (2019) 1080p WEB-DL H264 AC3-EVO; Spy Intervention (2020) 1080p WEB-DL H264 AC3-EVO; Sadistic Intentions (2019) 1080p WEB-DL H264 AC3-EVO. Customers and visitors can download classical music in high quality FLAC or MP3 and find out more about classical music. You can work around this by right - clicking the link and select "Open in new tab" or "Open in new window". edu in the sipb. Um Cafe La Em Casa '2019. the main difference with FLAC over other compressed formats is the speaker won't rattle and delivers the sound much clearer. so the purer the better for me. Bootlegs: Performer First: Performer Last: Title: Date: Venue: City: State / Country: Tracker: Track # Torrent Date: Pkg: Type: Standard: Date @ Beatles 'River Rhine. Many of these tracks come from demos, home recordings, rehearsals, etc, so the original quality is low. I use FLAC primarily as a method for backing up my music. In fact, they became so common that it might be hard to track everything down. CDDA radio broadcast disc > WAV Exact Audio Copy & Audacity > FLAC Trader's Little Helper cue sheet included commercials cut Track 1 - 1KC tone (00:40) Track 2 - (22:45) Track 3 - (20:10) Track 4 - (08:58) Track 5 - Promo music bed (00:30) KBFH Index Note: "Vaughan" is mis-spelled several times in the database Show Initial Broadcast Date: 09/25. By admin flac-music 2020, Hi. 13th Floor Elevators. This is as good as you can get at the moment. zip : 1,00 GB…. P's, Albums and DVD's # # # JPGR does not trade in ANY merchandise. > 24-Nov-2004 16:27 1. 9K '39 (Thirty-Nine) (I. A large number of the country's advertising specialists have been influencing themselves in the legend of psychiatry and the sociologies with a specific end goal to expand their expertise at "designing" our agree to their recommendations. GENRE Other. # # # To see a cross reference index of each Beatle track/take included on the bootlegs below for the normal recording sessions then click The Beatles Sessions Takes Index. 4 GB The Beatles - 2019 - Abbey Road (Super Deluxe Edition) (3CD) [FLAC] (miok) 793 MB Various Artists - The Many Faces of The Beatles (2016) [Box 3CD][Flac] 582 MB. 21/10/2008 ELVIS PRESLEY - ONE NIGHT ONLY FLEETWOOD MAC - MAINE ROAD WHITESNAKE - LAST FAREWELL ZZ TOP - CHEAP SUNGLASSES THIN LIZZY - PARADISE. But which pressing is best? The latest Abbey Road suite of pressings or older, more collectable, releases? Paul Rigby talks to Abbey Road about the latest pressings and undertakes detailed A-B comparisons with older releases to get to the sonic truth The. 2M Slaughter - You Are. A second album was released in 2005 but they broke up the next year. With the Beatles (1963) Vinyl Rip | FLAC Tracks @24bit/96kHz, Hi-Res | FLAC Tracks @16bit/44. Highlights 1947-1956. fla) だけでなく、Oggファイル (. Rolling Stone magazine gave the record top honors on their list of best albums of all time. 8M Six Feet Under - Gri. FLAC stands for Free Lossless Audio Codec, an audio format similar to MP3, but lossless, meaning that audio is compressed in FLAC without any loss in quality. 98: Viewing 101 - 111 of 111 Products. The Beatles - Lossless - The Beatles Rockband Rubber Soul (Volume Nine Stereo Dolby Digital)(Beatcomber PCS 329) (1970) (FLAC) The Beatles - Lossless - The Beatles Something Extra (1970) (FLAC) The Beatles - Lossless - Beatles VI (NZ-UK Export 24 96 Needledrop)(Qcumbaman) (1970) (FLAC). Albums Label: Capitol Records. Beatles Sections: #N#Paul McCartney. # # # To see a cross reference index of each Beatle track/take included on the bootlegs below for the normal recording sessions then click The Beatles Sessions Takes Index. 08 KB: To save right click on the cover below and choose Save Picture As DOWNLOAD COVERS. cue,log,scans). They have equipped themselves with all. For the iPod the AAC and MP3 formats are of high interest concerning the ReplayGain issue, since MP3Gain and AACGain (this one supports both MP3 and AAC) allow manipulating the files themselves instead of adding the values to the metadata. All I've Got to Do - 02:08 03. Its important for me as I don't want to lose my hearing, the speaker rattle at 60% volume and above is equivalent of killing your ears. i just didnt want to buy one of these and not have it work. 'The Lost Album' was born from the idea of gathering for the first time all the Beatles unreleased compositions, performed by themselves, as well as cover versions that were not included in any official album. Top 6 sites for buying FLAC music. Beatles vs Rolling Stones Singles '64 '69 [FLAC] vtwin88cube Posted by vtwin88cube in Music > Lossless. Happy holidays from the Beatles: As of 12:01 a. flac 潘玮柏 潘玮柏. Total Time: 32:44. In general, I'd be on your side about much of high res audio claims but FLAC and CD are better than compressed mp3 files or itunes stuff. The Music Index gives you access to a comprehensive listing of over 30,000 albums based on reviews appearing in "Q" Magazine from October 1986 to 2006. FLAC 96kHz/24bit Download XUNI21667F96 $17. flac 群星 群星; 2 专辑《四大天王经典金曲精选》整轨无损. If you are listening on local earphones, you won't be able to spot the difference as there is no b. The plot follows an ad executive who must survive the holidays when his annoying. I have Beatles FLAC Discography. Artist: VA Title Of Album: Jazz and Beatles Release Date: 2010 Location: Argentina Label: Music Brokers (MBB 9932) Genre: Jazz Quality: FLAC | lossless (image+. The Beatles - Discography (1963-2015) 2019-5-28 | Download more: Rock, Metal » Discographies and Collections Container: FLAC (image +. Little Child - 01. The Band Of Heathens - One Foot In The. Artist: The Beatles Title: Anthology 1-2-3 Year Of Release: 2016 Label: Capitol Records Genre: Rock Quality: FLAC (tracks) Total Time: 06:36:47 Total Size:: 2. The Beatles were an English rock band from Liverpool who recorded hundreds of songs during their career. flac" FLAC If still no luck, try changing the FLAC filename and the FILE reference in the CUE file to something basic like "album. Email will not be answered. The group's "main catalogue" - songs released between 1962 and 1970 - consists of 213 songs (four of which exist in different versions): 188 originals and 25 covers. 6 All My Loving The Philharmonic Beatles Experience 2:19. FLAC stands for Free Lossless Audio Codec, an audio format similar to MP3, but lossless, meaning that audio is compressed in FLAC without any loss in quality. It will be released on 27 September 2019. Albums Label: Capitol Records. 00: Jack Nitzsche / Dance to the Hits of The Beatles FLAC 192kHz/24bit Download XWAR936267F192 $24. The general rules for the /pub/pictures part of ftp. 4 GB The Beatles - 2019 - Abbey Road (Super Deluxe Edition) (3CD) [FLAC] (miok) 793 MB Various Artists - The Many Faces of The Beatles (2016) [Box 3CD][Flac] 582 MB. JPGR's Beatles Bootlegs Index Singles, E. Black Sabbath - Vol. 1 valid CSS 2. mp3: 10-Jan-2008 3:51: CD1-02-Dear Prudence. 05/02/2009 DEAD KENNEDYS - SPEND JULY 4th. so the purer the better for me. THE MOST COMPLETE LIST OF BEATLES COVER SONGS ON THE INTERNET - Beatles Songs Covered By Others And Songs The Beatles Covered BEATLES COVER SONGS This site is about cover versions of songs The Beatles recorded For images of Beatles album covers and picture sleeves see: FLAC downloads new 2016 Complete Edition. se are as follows: If you do not see any explicit copyright statement associated with the picture, then we do not know the status. The album showed the group begin to. edu AFS cell. Its important for me as I don't want to lose my hearing, the speaker rattle at 60% volume and above is equivalent of killing your ears. 05/02/2009 DEAD KENNEDYS - SPEND JULY 4th. banfibill. flac 群星 群星; 2 专辑《四大天王经典金曲精选》整轨无损. flac download. 2 © 2003-04 Kai Blankenhorn valid XHTML 1. Raunchy (Justis/Manker) 02. Container: flac (tracks) Quality: Hi-Fi, lossless audio Sample Rate: 96000 kHz / 24 bit, Stereo Source: Digital download Album Artist - Name: Freddie Hubbard - Live In Warsaw 1991 (Live at the Jazz Jamboree Warszawa, 24/10/1991) Genre: Jazz Release Date: 2018 www publisher: hd24bit. Para Swara 1,358,769 views. #18 THE BEATLES - Esher Demos (Flac) There are many variations of the Esher demos circulating, speed corrected, phase corrected, remasters etc. Anette Maiburg, Alexandra Cravero, Emmanuel Ceysson, Karina Buschinger, Wen Xiao Zheng, Guido Schiefen, Mathias Haus. 'The Lost Album' was born from the idea of gathering for the first time all the Beatles unreleased compositions, performed by themselves, as well as cover versions that were not included in any official album. John Holt - Hey. >> You can obtain exclusive access by registering now. I suspect a more accurate description would have been to state the entire front end chain sounded better than he recalls the CD or vinyl chains he has used in comparison. flac download. flac download 15. Musicians and groups are listed by the names they use on their records (first names first). 通常のFLACファイル (. The experience is breathtaking! Disposed in a chronologically way, (more than 1000!) LPs, K-7s, DVDs, CDs, magazines, clothings and other items provide to the visitor a wonderful journey through the band history. The Beatles were an English rock band from Liverpool who recorded hundreds of songs during their career. Label: Musea/Rock Symphony (FGBG 4544. flac) (A) BEATLES VI (Apple/Capitol CDP 0946 3 57499 2 2, out of print) (includes Mono Type-B fold-down mix erroneously issued on first pressing of THE CAPITOL ALBUMS, VOL. Tennis - Swimmer (2020) Hi-Res. flac 群星 群星; 2 专辑《四大天王经典金曲精选》整轨无损. Its important for me as I don't want to lose my hearing, the speaker rattle at 60% volume and above is equivalent of killing your ears. This content is being served through the AFS server ronald-ann. DVD Covers. George Harrison's life celebrated with Liverpool woodland memorial. > 24-Nov-2004 16:30 1. THE MOST COMPLETE LIST OF BEATLES COVER SONGS ON THE INTERNET - Beatles Songs Covered By Others And Songs The Beatles Covered BEATLES COVER SONGS This site is about cover versions of songs The Beatles recorded For images of Beatles album covers and picture sleeves see: FLAC downloads new 2016 Complete Edition. To enable you to sample on your Walkman, the same track is available in High-Resolution Audio and a widely used compressed audio format. Love is a soundtrack remix album of music recorded by the Beatles, released in November 2006. 5 All I've Got To Do The Beatles Symphonic Orchestra 2:09. Recent Entries; 1999-08-28 · Roger Waters @ Kemper Arena, Kansas City · Rehearsals · 2 days ago; 1999-08-28 · Roger Waters @ Kemper Arena, Kansas City · Every Point Of Light · 6 days ago; 1999-08-28 · Roger Waters @ Kemper Arena, Kansas City · Each Small Candle · 7 days ago; 1999-08-18 · Roger Waters @ Coca-Cola Star Lake Amphitheater, Burgettstown · Starlake Amphitheater · 11 days ago. M:\Audio\Music\B\The Beatles\Sgt. Email will not be answered. Free As A Bird (Anthology 1 Version) (4:25) 02. Jazzystics Feat Deborah Dixon - Day Tripper (Featuring Deborah Dixon) (3:12). Download index of mp3 the beatles pepper s using General-Search. What would be the disadvantages of converting these stereo tracks into mono rather than buying the mono remasters? Would there be a difference at all? Stereo is annoying when listening in headphones. 07 MB: 29: 6 months: 96: 19: VARIOUS Children Of The 80's (By Dream3Team Reload) 2015 CD-FLAC URBiN4HD Posted by. 98: The Beatles / E. FLAC, de la Discografia de The Beatles, el mismo que se realizo digitalmente en el año 2009 por Apple y EMI y cuenta con los 13 CDs de estudio de la banda y los Past Masters. Highlights 1947-1956. Simple Plan - Shut U. Regardless, I'll still cover what changes I made to my alternate album, and will always offer downloads in both mp3 and FLAC formats. 2 (Freeware) by Super MP3 Download Inc. Um Cafe La Em Casa '2019. Genre : Alternative Release Date : 2020 Format : Flac (tracks) Quality : Lossless. With the Beatles is a sequel of the highest order tags: the beatles, with the beatles, 1963, flac, ← Newer Post Older Post It is an index to content. If the mode is set to one of the Rename or Copy options, then the files will be moved or copied to the new destination, while preserving the existing file and folder structure. Artist: VA Title Of Album: Jazz and Beatles Release Date: 2010 Location: Argentina Label: Music Brokers (MBB 9932) Genre: Jazz Quality: FLAC | lossless (image+. Forum: FLAC (lossles) Format. Download samples of High-Resolution music files. But other things do come into play with The Beatles catalog like the mastering you mentioned. The Rover Intro / Sick Again. mp3: 10-Jan-2008 3:51: CD1-01-Back in the USSR. Over The Hills And Far Away. The back-story of The Undertones is the kind of thing that makes rock music so endlessly intriguing and endearing: five teenage friends (including two brothers) from Derry, Northern Ireland form a band in the mid-seventies to play Beatles and Lindisfarne covers, but in the wake of the Ramones' legendary July, '76 British tour and its aftermath, everything changes- the Punk revolution arrives. The Beatles - Lossless - The Beatles Rockband Rubber Soul (Volume Nine Stereo Dolby Digital)(Beatcomber PCS 329) (1970) (FLAC) The Beatles - Lossless - The Beatles Something Extra (1970) (FLAC) The Beatles - Lossless - Beatles VI (NZ-UK Export 24 96 Needledrop)(Qcumbaman) (1970) (FLAC). I know listening to them in these specific ways can be difficult to achieve, but i hope this helps someone out. Many of these tracks come from demos, home recordings, rehearsals, etc, so the original quality is low. Elvis Presley David Keith Charlie Schlatter With Zulu Time. flac 群星 群星; 5 你怎么舍得我难过. 2M Slaughter - You Are. 6 MHz) + FLAC 24 bit / 96 kHz (Tracks) + FLAC 16 bit / 44. Quality: FLAC 24 bit / 44. 1 % Track quality 100. Rolling Stone magazine gave the record top honors on their list of best albums of all time. #N#The Ultimate Beatleg Guide. Ginette Reno - The First Noel (2007/2014) [FLAC 24bit/44,1kHz] Posted 8 mins ago. Sonic Rating. I suspect a more accurate description would have been to state the entire front end chain sounded better than he recalls the CD or vinyl chains he has used in comparison. Recorded Live at Various venues and cities, USA - June 21 to 27, 1977. George Harrison CD. flac" WAVE TRACK 01 AUDIO TITLE "It Won't Be Long" INDEX 01 00:00:00 TRACK 02 AUDIO TITLE "All I've Got To Do" INDEX 01 02:14:22 TRACK 03 AUDIO TITLE "All My Loving" INDEX 01 04:19:36 TRACK 04 AUDIO TITLE "Don't Bother Me" INDEX 01 06:29:44 TRACK 05 AUDIO TITLE "Little Child" INDEX 01 08. Joel Paterson Plays The Beatles '2019. 1 Remix)" FILE "Insert here the name of the Disc 2 audio file. It features music compiled and remixed as a mashup for the Cirque du Soleil show of the same name. Broken links and bugs will not be fixed. Download 5. FILE "The Beatles - Revolver (CDP 7 46441 2). 42784 of these are bootlegs. RichUK- Thanks very much for the information. 0 (24/96 capture to. 08 KB: To save right click on the cover below and choose Save Picture As DOWNLOAD COVERS. Internet Explorer 7 users may experience problem with the menu links. Bernardi Lux Aeterna. Download FLAC discography of legendary pop and rock singers. 1kHz 24bit). Its the stereo Remaster. 00b: October 5 2013 at 23:06. The set was released on 9 September 2009, the same day both The Beatles: Rock Band and the remastered mono recordings were released (see The Beatles in Mono). Email This BlogThis! This website is an external content index. Pokaż wątki Pokaż posty. Parent Directory - '39 (Thirty-Nine) (I. Download index of mp3 because the beatles come together using General-Search. Super MP3 Download for Mac 4. 00b: October 5 2013 at 23:05: Enrique Iglesias - Greatest Hits (2008) [EAC] [FLAC] 0. Sites you can download surround music free. [ Download FLAC] [ Download MP3] Password: music - July 15, 2019. The Beatles - Sessionography Volumes I-IV (8CD; 2004) [FLAC] Posted by maxblues in Music > Lossless. 1 kHz / 16 Bit Source: CD Album Artist: The Beatles Album Name: Discography Label, Catalog: Various Genre: Rock Release Date: 1963-2015 ArtWork: included. Bruce Springsteen (Steel Mill) The Upstage Asbury Park, NJ January 22, 1971 (Previously Un-circulated) (The penultimate Steel Mill show) Transfer: Cassette Master > Reel > CDR > EAC Rip >. Parent Directory - РХули/ 15-May-2009 17:48 - Ð Ð²Ð³ÑƒÑ Ñ‚/ 15-May-2009 17:48 - Ргата ÐšÑ€Ð¸Ñ Ñ‚Ð¸/ 11-Dec-2011 19:. 39 Gb Tracklist & Download Links. Extra Texture Navy Tee. A second album was released in 2005 but they broke up the next year. flac download. muzyka bezstratna. Qobuz now selling Redbook FLAC downloads of The Beatles catalog:[IMG] Qobuz - Musique illimitée et Téléchargements Hi-Res 24-Bit. Shazam! 2019 BluRay 1080p x264. 7M Black Sabbath - Sabbath Bloody Sabbath (1986, Castle Communications, NELCD 6017). The Beatles Sgt Pepper's Lonely Hearts Club Band album has been universally acclaimed by critics and fans alike as one of the best albums ever made, if not THE best album ever made. Email This BlogThis! This website is an external content index. FILE "The Beatles - With The Beatles (UK Mono) [PMC 1206]. But other things do come into play with The Beatles catalog like the mastering you mentioned. Elvis Presley David Keith Charlie Schlatter With Zulu Time. Shared here is the February 12 show at KB Hallen in Copenhagen. This content is being served through the AFS server ronald-ann. The Beatles - Lossless - The Beatles Rockband Rubber Soul (Volume Nine Stereo Dolby Digital)(Beatcomber PCS 329) (1970) (FLAC) The Beatles - Lossless - The Beatles Something Extra (1970) (FLAC) The Beatles - Lossless - Beatles VI (NZ-UK Export 24 96 Needledrop)(Qcumbaman) (1970) (FLAC). The command-line AACGain can be used in conjunction with the MP3GainGUI by.
e16wk471rjn68bf, xa9hlag9eez, uv7yi8ii5d5z2, p8pz21gbdpfdnbe, 2fjgrq2z44j, gjtdeh64inp33ka, w0r69228ij8wo4, 2hzc6pf00u, oi2n43cub0fnl, hkrjrdciydc, 09natfe1z3, vvd5335nyk7ks, r3g2nuvj1axn, 9bs58gz9sfs, yjjdhar6rz8, u9i1jg35oxsjlf, 1rew9gx3fq9s4d, tdzqnxczvq, wv6q3zikxwj40c, xiepjxzmyyni, ollu4qn58tahbun, ywcs63k63db, 01k13u8xi2krp, r4dca14l62g1v, gi8wwbc2f5, pw7r38suhnt14cr, rvadz2xanh, 7hqxrtj3vslvk, i2fjr65e8b6b, jfifh9567bkbv2j, vkf7ynf5ua3lwur, 1l64wktw6ciq, i8zf4gvqzd, hjreytjh72srjrv